Member


profile-image

olegue

Oleg Miloshev Sofia, Bulgaria
No supported products.
33 comments
Cool Effect Kwin Effects
Aug 07 2013
Zoom Desktop Kwin Effects
Mar 17 2013
JEY!style Icons Icon Themes
Mar 12 2013
2ManDVD Utilities
Oct 23 2012
SFLPhone KDE Telephony
Aug 13 2012
Chakra Gtk Config - KCM System Software
Oct 05 2011
Feff Video Software
here it is:

-i /home/12.avi -y -vcodec libx264 -s 1024x768 -ab 384000.00 -vol 256 -scodec srt -map 0.0 -map 0.1 -f matroska /home/two/Desktop/1.matroskaffmpeg version 0.8, Copyright (c) 2000-2011 the FFmpeg developers
built on Jun 23 2011 09:35:04 with gcc 4.5.1 20101208 [gcc-4_5-branch revision 167585]
configuration: --shlibdir=/usr/lib64 --prefix=/usr --mandir=/usr/share/man --libdir=/usr/lib64 --enable-shared --disable-static --enable-libmp3lame --enable-libvorbis --enable-libtheora --enable-libspeex --enable-libxvid --enable-postproc --enable-gpl --enable-x11grab --extra-cflags='-fmessage-length=0 -O2 -Wall -D_FORTIFY_SOURCE=2 -fstack-protector -funwind-tables -fasynchronous-unwind-tables -g -fPIC -I/usr/include/gsm' --enable-debug --disable-stripping --enable-libgsm --enable-libschroedinger --enable-libdirac --enable-avfilter --enable-libvpx --enable-version3 --enable-libopencore-amrnb --enable-libopencore-amrwb --enable-libx264 --enable-libdc1394 --enable-pthreads --enable-librtmp
libavutil 51. 9. 1 / 51. 9. 1
libavcodec 53. 7. 0 / 53. 7. 0
libavformat 53. 4. 0 / 53. 4. 0
libavdevice 53. 1. 1 / 53. 1. 1
libavfilter 2. 23. 0 / 2. 23. 0
libswscale 2. 0. 0 / 2. 0. 0
libpostproc 51. 2. 0 / 51. 2. 0
[mpeg4 @ 0x637720] Invalid and inefficient vfw-avi packed B frames detected
Input #0, avi, from '/home/12.avi':
Metadata:
encoder : VirtualDubMod 1.5.10.2 (build 2540/release)
Duration: 02:00:52.62, start: 0.000000, bitrate: 2071 kb/s
Stream #0.0: Video: mpeg4, yuv420p, 720x304 [PAR 1:1 DAR 45:19], 23.98 tbr, 23.98 tbn, 23.98 tbc
Stream #0.1: Audio: ac3, 48000 Hz, 5.1, s16, 384 kb/s
[buffer @ 0x62fe60] w:720 h:304 pixfmt:yuv420p tb:1/1000000 sar:1/1 sws_param:
[scale @ 0x638f40] w:720 h:304 fmt:yuv420p -> w:1024 h:768 fmt:yuv420p flags:0x4
[libx264 @ 0x62f9a0] Default settings detected, using medium profile
[libx264 @ 0x62f9a0] using SAR=1/1
[libx264 @ 0x62f9a0] using cpu capabilities: MMX2 SSE2Slow SlowCTZ
[libx264 @ 0x62f9a0] profile High, level 3.1
[libx264 @ 0x62f9a0] 264 - core 115 - H.264/MPEG-4 AVC codec - Copyleft 2003-2011 - http://www.videolan.org/x264.html - options: cabac=1 ref=3 deblock=1:0:0 analyse=0x3:0x113 me=hex subme=7 psy=1 psy_rd=1.00:0.00 mixed_ref=1 me_range=16 chroma_me=1 trellis=1 8x8dct=1 cqm=0 deadzone=21,11 fast_pskip=1 chroma_qp_offset=-2 threads=1 sliced_threads=0 nr=0 decimate=1 interlaced=0 bluray_compat=0 constrained_intra=0 bframes=3 b_pyramid=2 b_adapt=1 b_bias=0 direct=1 weightb=1 open_gop=0 weightp=2 keyint=250 keyint_min=23 scenecut=40 intra_refresh=0 rc_lookahead=40 rc=crf mbtree=1 crf=23.0 qcomp=0.60 qpmin=0 qpmax=69 qpstep=4 ip_ratio=1.40 aq=1:1.00
[mp2 @ 0x636de0] encoding 6 channel(s) is not allowed in mp2
Output #0, matroska, to '/home/two/Desktop/1.matroska':
Stream #0.0: Video: libx264, yuv420p, 1024x768 [PAR 1:1 DAR 4:3], q=2-31, 200 kb/s, 90k tbn, 23.98 tbc
Stream #0.1: Audio: mp2, 48000 Hz, 5.1, s16, 384 kb/s
Stream mapping:
Stream #0.0 -> #0.0
Stream #0.1 -> #0.1
Error while opening encoder for output stream #0.1 - maybe incorrect parameters such as bit_rate, rate, width or height
-i /home/12.avi -y -vcodec libx264 -s 1024x768 -acodec aac -ab 384000.00 -vol 256 -scodec srt -map 0.0 -map 0.1 -f matroska /home/two/Desktop/1.matroskaffmpeg version 0.8, Copyright (c) 2000-2011 the FFmpeg developers
built on Jun 23 2011 09:35:04 with gcc 4.5.1 20101208 [gcc-4_5-branch revision 167585]
configuration: --shlibdir=/usr/lib64 --prefix=/usr --mandir=/usr/share/man --libdir=/usr/lib64 --enable-shared --disable-static --enable-libmp3lame --enable-libvorbis --enable-libtheora --enable-libspeex --enable-libxvid --enable-postproc --enable-gpl --enable-x11grab --extra-cflags='-fmessage-length=0 -O2 -Wall -D_FORTIFY_SOURCE=2 -fstack-protector -funwind-tables -fasynchronous-unwind-tables -g -fPIC -I/usr/include/gsm' --enable-debug --disable-stripping --enable-libgsm --enable-libschroedinger --enable-libdirac --enable-avfilter --enable-libvpx --enable-version3 --enable-libopencore-amrnb --enable-libopencore-amrwb --enable-libx264 --enable-libdc1394 --enable-pthreads --enable-librtmp
libavutil 51. 9. 1 / 51. 9. 1
libavcodec 53. 7. 0 / 53. 7. 0
libavformat 53. 4. 0 / 53. 4. 0
libavdevice 53. 1. 1 / 53. 1. 1
libavfilter 2. 23. 0 / 2. 23. 0
libswscale 2. 0. 0 / 2. 0. 0
libpostproc 51. 2. 0 / 51. 2. 0
[mpeg4 @ 0x637720] Invalid and inefficient vfw-avi packed B frames detected
Input #0, avi, from '/home/12.avi':
Metadata:
encoder : VirtualDubMod 1.5.10.2 (build 2540/release)
Duration: 02:00:52.62, start: 0.000000, bitrate: 2071 kb/s
Stream #0.0: Video: mpeg4, yuv420p, 720x304 [PAR 1:1 DAR 45:19], 23.98 tbr, 23.98 tbn, 23.98 tbc
Stream #0.1: Audio: ac3, 48000 Hz, 5.1, s16, 384 kb/s
encoder 'aac' is experimental and might produce bad results.
Add '-strict experimental' if you want to use it.
-i /home/12.avi -y -vcodec libx264 -s 1024x768 -acodec dca -ab 384000.00 -vol 256 -scodec srt -map 0.0 -map 0.1 -f matroska /home/two/Desktop/1.matroskaffmpeg version 0.8, Copyright (c) 2000-2011 the FFmpeg developers
built on Jun 23 2011 09:35:04 with gcc 4.5.1 20101208 [gcc-4_5-branch revision 167585]
configuration: --shlibdir=/usr/lib64 --prefix=/usr --mandir=/usr/share/man --libdir=/usr/lib64 --enable-shared --disable-static --enable-libmp3lame --enable-libvorbis --enable-libtheora --enable-libspeex --enable-libxvid --enable-postproc --enable-gpl --enable-x11grab --extra-cflags='-fmessage-length=0 -O2 -Wall -D_FORTIFY_SOURCE=2 -fstack-protector -funwind-tables -fasynchronous-unwind-tables -g -fPIC -I/usr/include/gsm' --enable-debug --disable-stripping --enable-libgsm --enable-libschroedinger --enable-libdirac --enable-avfilter --enable-libvpx --enable-version3 --enable-libopencore-amrnb --enable-libopencore-amrwb --enable-libx264 --enable-libdc1394 --enable-pthreads --enable-librtmp
libavutil 51. 9. 1 / 51. 9. 1
libavcodec 53. 7. 0 / 53. 7. 0
libavformat 53. 4. 0 / 53. 4. 0
libavdevice 53. 1. 1 / 53. 1. 1
libavfilter 2. 23. 0 / 2. 23. 0
libswscale 2. 0. 0 / 2. 0. 0
libpostproc 51. 2. 0 / 51. 2. 0
[mpeg4 @ 0x637720] Invalid and inefficient vfw-avi packed B frames detected
Input #0, avi, from '/home/12.avi':
Metadata:
encoder : VirtualDubMod 1.5.10.2 (build 2540/release)
Duration: 02:00:52.62, start: 0.000000, bitrate: 2071 kb/s
Stream #0.0: Video: mpeg4, yuv420p, 720x304 [PAR 1:1 DAR 45:19], 23.98 tbr, 23.98 tbn, 23.98 tbc
Stream #0.1: Audio: ac3, 48000 Hz, 5.1, s16, 384 kb/s
encoder 'dca' is experimental and might produce bad results.
Add '-strict experimental' if you want to use it.
Jul 21 2011
Feff Video Software
Jul 21 2011
Feff Video Software
Jul 21 2011
Feff Video Software
Jul 21 2011
Feff Video Software
Jul 21 2011
Feff Video Software
Jul 21 2011
KBookOCR Office
Jul 18 2011
KBookOCR Office
Jul 17 2011
DeVeDe Video Software
Jul 08 2011